Unfertiggestellte *.mov - Datei

Diskutiere Unfertiggestellte *.mov - Datei im Software Probleme Forum im Bereich Computerprobleme; Hallo liebe Community, ich habe aktuell ein Problem, bei dem ich dringend Hilfe suche und jedem Tipp dankbar bin! Folgendes ist passiert: Ich...

  1. #1 Fabiank5, 14.02.2012
    Zuletzt bearbeitet: 14.02.2012
    Fabiank5

    Fabiank5 Neuer Benutzer

    Dabei seit:
    14.02.2012
    Beiträge:
    1
    Zustimmungen:
    0
    Hallo liebe Community,

    ich habe aktuell ein Problem, bei dem ich dringend Hilfe suche und jedem Tipp dankbar bin!

    Folgendes ist passiert:

    Ich habe Abends mit meinem MacBook (OS X) ein Video aufgenommen mit der PhotoBooth. Das Video geht mehr als 2 Stunden und ist auf der Festplatte auch 4,4GB groß, demnach müssen da auch genug Daten vorhanden sein. Problem jetzt jedoch ist, dass das System während der Aufnahme abgestürzt ist und das Programm die Aufnahme nicht fertig gestellt hat.


    Folgendes gibt mir MediaInfo im Debug Mode aus:

    General
    Count : 279
    Count of stream of this kind : 1
    Kind of stream : General
    Kind of stream : General
    Stream identifier : 0
    Inform : MPEG-4 (QuickTime): 4.34 GiB
    Complete name : /Users/Fabiank5/Desktop/Film am 10.02.12 um 23.31.mov
    Folder name : /Users/Fabiank5/Desktop
    File name : Film am 10.02.12 um 23.31
    File extension : mov
    Format : MPEG-4
    Format : MPEG-4
    Format/Extensions usually used : mp4 m4v m4a m4b m4p 3gpp 3gp 3gpp2 3g2 k3g jpm jpx mqv ismv isma f4v
    Commercial name : MPEG-4
    Format profile : QuickTime
    Internet media type : video/mp4
    Codec ID : qt
    Codec ID/Url : http://www.apple.com/quicktime/download/standalone.html
    Codec : MPEG-4
    Codec : MPEG-4
    Codec/Extensions usually used : mp4 m4v m4a m4b m4p 3gpp 3gp 3gpp2 3g2 k3g jpm jpx mqv ismv isma f4v
    File size : 4660427746
    File size : 4.34 GiB
    File size : 4 GiB
    File size : 4.3 GiB
    File size : 4.34 GiB
    File size : 4.340 GiB
    Stream size : 4660427746
    Stream size : 4.34 GiB (100%)
    Stream size : 4 GiB
    Stream size : 4.3 GiB
    Stream size : 4.34 GiB
    Stream size : 4.340 GiB
    Stream size : 4.34 GiB (100%)
    Proportion of this stream : 1.00000
    HeaderSize : 28
    DataSize : 4660427718
    FooterSize : 0
    IsStreamable : No
    File last modification date : UTC 2012-02-11 00:06:12
    File last modification date (local) : 2012-02-11 01:06:12


    Nun suche ich nach einem Weg das Video wiederherzustellen bzw fertigzustellen. Ist eine *.mov - Datei!

    Hätte da jemand eine Idee für mich?

    Liebe Grüße
     
  2. Anzeige

    schau dir mal diesen Ratgeber an. Dort findet man viele Hilfestellungen.
    Registrieren bzw. einloggen, um diese und auch andere Anzeigen zu deaktivieren.
  3. Laton

    Laton Erfahrener Benutzer

    Dabei seit:
    22.12.2010
    Beiträge:
    2.913
    Zustimmungen:
    0
    Unter Windows würde ich es mit dem VLC- Player ausprobieren. Der bietet auch die Option an zu reparieren.
     
Thema: Unfertiggestellte *.mov - Datei
Besucher kamen mit folgenden Suchen
  1. .MOV reparieren

    ,
  2. mov reparieren

    ,
  3. mov datei reparieren

    ,
  4. defekte mov datei reparieren,
  5. defekte mov dateien reparieren,
  6. beschädigte mov datei reparieren,
  7. mov dateien reparieren,
  8. beschädigte mov datei wiederherstellen,
  9. m4v reparieren,
  10. fehlerhafte mov-dateien reparieren,
  11. .mov repair,
  12. mov datei repair,
  13. reparatur .mov dateien,
  14. photo booth film reparieren,
  15. beschädigte mov reparieren,
  16. vlc media file (.mov) (.mov) reparieren,
  17. mov file reparieren,
  18. photo booth mac video datei reparieren,
  19. photo booth defekte dateien abspielen,
  20. m4a datei reparieren,
  21. defekte mov reparieren,
  22. unfertige mp4 öffnen,
  23. .mov datei reparieren,
  24. photo booth film beschädigt,
  25. defekte m4v datei reparieren
Die Seite wird geladen...

Unfertiggestellte *.mov - Datei - Ähnliche Themen

  1. Uploaded.net Datei hochladen geht nicht

    Uploaded.net Datei hochladen geht nicht: Hallo habe Win 7 , und wenn ich auf Uploaded.net bin und möchte eine datei per Uploaded hochladen , drückt man normalerweise auf dem Button , dann...
  2. Dateien verschwinden aus iPhone Galerie

    Dateien verschwinden aus iPhone Galerie: Hallo Community, ich habe ein iPhone 6 mit der Version 10.2.1 (14D27), bei welchem der Speicherplatz weitestgehend ausgenutzt ist (58,99 GB...
  3. Desktop Dateien unter Parallels verschwunden

    Desktop Dateien unter Parallels verschwunden: Hallo zusammen, auf meinem Mac läuft Windows mit Parallels (aktuell Version 12). Vor ein paar Wochen habe ich mein Laptop mit HDMI mit meinem...
  4. Windows 7 verschiebt keine Dateien mit chinesischen Schriftzeichen zwischen Laufwerken

    Windows 7 verschiebt keine Dateien mit chinesischen Schriftzeichen zwischen Laufwerken: Hallo, ich habe ein paar Dateien, die im Titel chinesische Schriftzeichen haben, und ich wollte sie auf einen NAS-Ordner schieben. Ich bekomme...
  5. da-Vinci-Code-Datei????

    da-Vinci-Code-Datei????: Ich weiß nicht ob ich hier richtig bin, sonst bitte verschieben. Seit dem 11.11. stehen komplett alle unsere Fotos auf oben genannter...