Suche Brennprogramm, Freeware, mit Funktion: Audiospur in Tracks aufteilen

Dieses Thema im Forum "Software Probleme" wurde erstellt von fettschlumpf, 19.01.2011.

  1. #1 fettschlumpf, 19.01.2011
    fettschlumpf

    fettschlumpf Neuer Benutzer

    Dabei seit:
    10.01.2007
    Beiträge:
    21
    Zustimmungen:
    0
    Hola señores,

    ich hatte die Schnau*e voll von Nero 9 (gekauft), dessen lange Ladezeiten und vorgegaukelten großen Funktionsumfang, der sich nur in den Hunderterstellen der belegten Festplattenkapazität widerspiegelt. Nun hab ichs runtergehauen und CDBurnerXP installiert. Wenig MB, wenige Ladezeit, aber auch ohne Funktion, dass man eine z.B. 45 Minuten lange Audiodatei in Tracks aufteilen kann. Funktion bei Nero gabs unter Audio-Eigenschaften > "Grenzen, Indizes, Trennen".

    Ich habe Google und Forensuchen schon bemüht, aber nichts konkretes gefunden. Ich eh 20 Freewares ausprobiere, weiß evtl. jemand eine, die die genannte Funktion beinhaltet.

    Vielen Dank
    Kevin
     
  2. AdMan

    schau mal hier: Windows-Wartungs-Tool. Viele Probleme lassen sich damit einfach beheben. Oftmals ist der PC dann auch schneller!
    Registrieren bzw. einloggen, um diese und auch andere Anzeigen zu deaktivieren.
  3. #2 Nephilim, 19.01.2011
    Nephilim

    Nephilim Strahlemann

    Dabei seit:
    28.09.2008
    Beiträge:
    1.665
    Zustimmungen:
    0
    Ort:
    DE, Hessen, Nst.
    Also Brennprogramm mit dieser Funktion wird schwehr aber beide einzeln könnte schon eher klappen. ;) :D
    Hast du das schon mal versucht zum schneiden?:

    Audacity: Download
     
  4. #3 fettschlumpf, 19.01.2011
    Zuletzt bearbeitet: 19.01.2011
    fettschlumpf

    fettschlumpf Neuer Benutzer

    Dabei seit:
    10.01.2007
    Beiträge:
    21
    Zustimmungen:
    0
    "Von Hand" trennen könnt ich es, aber bei Musik (durchgängiger Mix) trifft man nicht immer den Nulldurchgang der Welle im linken und rechten Kanal gleichzeitig. Da hab ich schon schlechte Erfahrungen mit Knacksen gemacht, selbst wenn ichs im niedrigst möglichen gleichzeitigen l & r Pegel geschnitten hab und dann "ohne Pause zwischen den Tracks" gebrannt hab.

    Anmerkung 12:24 Uhr .... aaaaaaah, das sieht doch mal interessant aus .... mal lesen http://mitglied.multimania.de/big_sleepy/cuesheet.htm
     
  5. #4 Nephilim, 19.01.2011
    Nephilim

    Nephilim Strahlemann

    Dabei seit:
    28.09.2008
    Beiträge:
    1.665
    Zustimmungen:
    0
    Ort:
    DE, Hessen, Nst.
    Okkay... das is dann schonwieder zu kompliziert für mich. Ich hantier da immer nur mit Virtual DJ rum aber da könntese nur den Track abspielen und als einelne Tracks neu aufnehmen. :D Also ich kann dir ab hier glaub nemmer Helfen aber halt die Ohren und Augen offen. ;) :D
     
  6. #5 fettschlumpf, 19.01.2011
    Zuletzt bearbeitet: 19.01.2011
    fettschlumpf

    fettschlumpf Neuer Benutzer

    Dabei seit:
    10.01.2007
    Beiträge:
    21
    Zustimmungen:
    0
    Schon gelöst.

    Einfach ne Textdatei erstellt, .cue genannt und diese statt einer Audio-Datei bei CDBurnerXP ins Track-Fenster gezogen. Zack. Und sogar mit Hidden Track. Is nun noch die Frage, wie ich diese Zeiten ohne mein altes Nero 6 herausfinde. Arbeite mit Wavelab und CD-Brenner arbeiten mit [Min]:[Sek]:[Frames(1-75)]

    Code:
    FILE "MASTER.WAV" WAVE
      TRACK 01 AUDIO
        INDEX 01 00:00:00
      TRACK 02 AUDIO
          PREGAP 00:00:00
        INDEX 01 02:22:53
      TRACK 03 AUDIO
          PREGAP 00:00:00
        INDEX 01 07:52:29
      TRACK 04 AUDIO
          PREGAP 00:00:00
        INDEX 01 12:41:71
      TRACK 05 AUDIO
          PREGAP 00:00:00
        INDEX 01 16:47:13
      TRACK 06 AUDIO
          PREGAP 00:00:00
        INDEX 01 23:53:41
      TRACK 07 AUDIO
          PREGAP 00:00:00
        INDEX 01 29:30:25
      TRACK 08 AUDIO
          PREGAP 00:00:00
        INDEX 01 34:56:48
      TRACK 09 AUDIO
          PREGAP 00:00:00
        INDEX 01 39:54:14
    FILE "MASTER_DEMO.WAV" WAVE
      TRACK 10 AUDIO
          PREGAP 01:11:00
        INDEX 00 00:00:00
     
  7. #6 Nephilim, 20.01.2011
    Nephilim

    Nephilim Strahlemann

    Dabei seit:
    28.09.2008
    Beiträge:
    1.665
    Zustimmungen:
    0
    Ort:
    DE, Hessen, Nst.
    Ohh geil... :D
    Also da wär hier glaub ich keiner drauf gekommen. ;) :D
    Also ich aufjedenfall net. :D
     
  8. AdMan

    Es ist generell erstmal empfehlenswert alle ggf. veralteten oder fehlerhaften Treiber zu scannen und auf neue zu aktualisieren. Hier kannst du einen Treiber-Scanner downloaden. Das erspart oftmals viel Ärger und hilft gegen diverse Probleme.
    Registrieren bzw. einloggen, um diese und auch andere Anzeigen zu deaktivieren.
Thema: Suche Brennprogramm, Freeware, mit Funktion: Audiospur in Tracks aufteilen
Besucher kamen mit folgenden Suchen
  1. cdburnerxp tracks teilen

    ,
  2. cdburnerxp titel unterteilen

    ,
  3. cdburnerxp pregap

    ,
  4. suche brenner kostenlos der cd aufteilt,
  5. cdburnerxp audio teilen,
  6. brennprogramme mit pregaps,
  7. nero 9 tracks trennen,
  8. audiodatei in tracks unterteilen,
  9. cdburnerxp überlänge brennen,
  10. brennsoftware tracks splitten,
  11. audio tracks trennen mit brennprogramm,
  12. cd burner xp musik teilen,
  13. wav musik mixen freeware brennprogramm,
  14. cdburnerxp audio überlänge brennen,
  15. audiodatei in tracks aufteilen,
  16. cdburnerxp musikstücke trennen,
  17. Nero 9 Überlänge,
  18. suche brennprogramm wo man auf cd kopieren kann,
  19. cdburnerxp - tonspur auswählen,
  20. cdburnerxp track teilen,
  21. audio in tracks aufteilen,
  22. cdburnerxp mix aufteilen tracks,
  23. cdburnerxp pre gap track,
  24. brenn software mit track aufteiler,
  25. brennprogramm mit dem man aufteilen kann
Die Seite wird geladen...

Suche Brennprogramm, Freeware, mit Funktion: Audiospur in Tracks aufteilen - Ähnliche Themen

  1. Auf der Suche nach Datingtipps!

    Auf der Suche nach Datingtipps!: Suche alles zum Thema Flirten. Internetseiten gerne auch. Sowas z.B. dating-akademie.net
  2. Lenovo L412: Suche nach Handbuch und Problem mit der Tastaturbelegung

    Lenovo L412: Suche nach Handbuch und Problem mit der Tastaturbelegung: Hallo Ich habe unlängst ein Lenovo Thinkpad L412 gebraucht erstanden und habe jetzt 2 Probleme: Zum Notebook gab es kein Handbuch. Im Netz...
  3. Suche noch gutes Buch

    Suche noch gutes Buch: Ich will am WE mehr lesen. Ich habe mir zwar jetzt den Harry Potter-Teil auf englisch bestellt, aber ich brauche noch eins, falls das nix wird mit...
  4. Suche Service-Hotline für PC-Probleme!

    Suche Service-Hotline für PC-Probleme!: Guten Tag! Ich habe ein paar (größere) Software-Probleme und suche nach einer kompetenten Beratung via Telefon- das sollte fürs erste reichen!...
  5. Suche Xeon CPU

    Suche Xeon CPU: Hat jemand zufällig einen Intel Xeon X5470 übrig? Möchte mir einen MOd auf 775 raufhauen. Thnx